Results 1 to 19 of 19

Thread: The Witcher 2 : Assassins of Kings [FLAC]

  1. #1
    Shriner _A.T.Omix_'s Avatar
    Join Date
    Jan 2011
    Posts
    86

    Thumbs up The Witcher 2 : Assassins of Kings [FLAC]





    Code:
    CUERipper v2.1.0 Copyright (C) 2008-10 Gregory S. Chudov
    
    EAC extraction logfile from 18. May 2011, 0:55
    
    Adam Skorupa, Krzysztof Wierzynkiewicz / The Witcher 2 -Soundtrack
    
    Used drive  : DTSOFT BDROM   Adapter: 1  ID: 0
    
    Read mode               : Secure
    Utilize accurate stream : Yes
    Defeat audio cache      : Yes
    Make use of C2 pointers : No
    
    Read offset correction                      : 0
    Overread into Lead-In and Lead-Out          : No
    Fill up missing offset samples with silence : Yes
    Delete leading and trailing silent blocks   : No
    Null samples used in CRC calculations       : Yes
    Used interface                              : Native Win32 interface for Win NT & 2000
    Gap handling                                : Appended to previous track
    
    Used output format : Internal WAV Routines
    Sample format      : 44.100 Hz; 16 Bit; Stereo
    
    
    TOC of the extracted CD
    
         Track |   Start  |  Length  | Start sector | End sector 
        ---------------------------------------------------------
            1  |  0:00.00 |  2:08.72 |         0    |     9671   
            2  |  2:08.72 |  4:08.04 |      9672    |    28275   
            3  |  6:17.01 |  1:28.00 |     28276    |    34875   
            4  |  7:45.01 |  7:35.00 |     34876    |    69000   
            5  | 15:20.01 |  3:48.73 |     69001    |    86173   
            6  | 19:08.74 |  1:18.00 |     86174    |    92023   
            7  | 20:26.74 |  5:49.42 |     92024    |   118240   
            8  | 26:16.41 |  3:55.00 |    118241    |   135865   
            9  | 30:11.41 |  1:11.30 |    135866    |   141220   
           10  | 31:22.71 |  2:38.65 |    141221    |   153135   
           11  | 34:01.61 |  3:04.03 |    153136    |   166938   
           12  | 37:05.64 |  1:49.03 |    166939    |   175116   
           13  | 38:54.67 |  1:20.01 |    175117    |   181117   
           14  | 40:14.68 |  7:30.74 |    181118    |   214941   
           15  | 47:45.67 |  1:15.02 |    214942    |   220568   
           16  | 49:00.69 |  4:47.02 |    220569    |   242095   
           17  | 53:47.71 |  3:16.66 |    242096    |   256861   
           18  | 57:04.62 |  1:06.73 |    256862    |   261884   
           19  | 58:11.60 |  3:19.70 |    261885    |   276879   
           20  | 61:31.55 |  4:13.29 |    276880    |   295883   
           21  | 65:45.09 |  1:56.74 |    295884    |   304657   
           22  | 67:42.08 |  2:02.01 |    304658    |   313808   
           23  | 69:44.09 |  3:16.69 |    313809    |   328577   
    
    
    Track  1
    
         Filename C:\Users\_A.T.Omix_\Music\Adam Skorupa, Krzysztof Wierzynkiewicz\2011 - The Witcher 2 -Soundtrack\01. Assassins of Kings.wav
    
         Pre-gap length  0:00:02.00
    
         Peak level 99.3 %
         Track quality 100.0 %
         Test CRC 809469DE
         Copy CRC 809469DE
         Track not present in AccurateRip database
         Copy OK
    
    Track  2
    
         Filename C:\Users\_A.T.Omix_\Music\Adam Skorupa, Krzysztof Wierzynkiewicz\2011 - The Witcher 2 -Soundtrack\02. A Nearly Peaceful Place.wav
    
         Peak level 98.9 %
         Track quality 100.0 %
         Test CRC CAE11C69
         Copy CRC CAE11C69
         Track not present in AccurateRip database
         Copy OK
    
    Track  3
    
         Filename C:\Users\_A.T.Omix_\Music\Adam Skorupa, Krzysztof Wierzynkiewicz\2011 - The Witcher 2 -Soundtrack\03. The Path of a Kingslayer.wav
    
         Peak level 99.3 %
         Track quality 100.0 %
         Test CRC A163C469
         Copy CRC A163C469
         Track not present in AccurateRip database
         Copy OK
    
    Track  4
    
         Filename C:\Users\_A.T.Omix_\Music\Adam Skorupa, Krzysztof Wierzynkiewicz\2011 - The Witcher 2 -Soundtrack\04. Dwarven Stone upon Dwarven Stone.wav
    
         Peak level 95.8 %
         Track quality 100.0 %
         Test CRC 1FA2B623
         Copy CRC 1FA2B623
         Track not present in AccurateRip database
         Copy OK
    
    Track  5
    
         Filename C:\Users\_A.T.Omix_\Music\Adam Skorupa, Krzysztof Wierzynkiewicz\2011 - The Witcher 2 -Soundtrack\05. Through the Underworld.wav
    
         Peak level 98.7 %
         Track quality 100.0 %
         Test CRC 4566F6B1
         Copy CRC 4566F6B1
         Track not present in AccurateRip database
         Copy OK
    
    Track  6
    
         Filename C:\Users\_A.T.Omix_\Music\Adam Skorupa, Krzysztof Wierzynkiewicz\2011 - The Witcher 2 -Soundtrack\06. The Lone Survivor.wav
    
         Peak level 99.5 %
         Track quality 100.0 %
         Test CRC 1A129AAA
         Copy CRC 1A129AAA
         Track not present in AccurateRip database
         Copy OK
    
    Track  7
    
         Filename C:\Users\_A.T.Omix_\Music\Adam Skorupa, Krzysztof Wierzynkiewicz\2011 - The Witcher 2 -Soundtrack\07. Into the Fields.wav
    
         Peak level 98.9 %
         Track quality 100.0 %
         Test CRC 1A1F5647
         Copy CRC 1A1F5647
         Track not present in AccurateRip database
         Copy OK
    
    Track  8
    
         Filename C:\Users\_A.T.Omix_\Music\Adam Skorupa, Krzysztof Wierzynkiewicz\2011 - The Witcher 2 -Soundtrack\08. An Army Lying in Wait.wav
    
         Peak level 98.9 %
         Track quality 100.0 %
         Test CRC B9EEFD28
         Copy CRC B9EEFD28
         Track not present in AccurateRip database
         Copy OK
    
    Track  9
    
         Filename C:\Users\_A.T.Omix_\Music\Adam Skorupa, Krzysztof Wierzynkiewicz\2011 - The Witcher 2 -Soundtrack\09. Easier Said than Killed.wav
    
         Peak level 99.4 %
         Track quality 100.0 %
         Test CRC 5A642644
         Copy CRC 5A642644
         Track not present in AccurateRip database
         Copy OK
    
    Track 10
    
         Filename C:\Users\_A.T.Omix_\Music\Adam Skorupa, Krzysztof Wierzynkiewicz\2011 - The Witcher 2 -Soundtrack\10. A Watering Hole in the Harbor.wav
    
         Peak level 99.6 %
         Track quality 100.0 %
         Test CRC 8B9D5C57
         Copy CRC 8B9D5C57
         Track not present in AccurateRip database
         Copy OK
    
    Track 11
    
         Filename C:\Users\_A.T.Omix_\Music\Adam Skorupa, Krzysztof Wierzynkiewicz\2011 - The Witcher 2 -Soundtrack\11. Within the Mist.wav
    
         Peak level 98.8 %
         Track quality 100.0 %
         Test CRC 5385DD9E
         Copy CRC 5385DD9E
         Track not present in AccurateRip database
         Copy OK
    
    Track 12
    
         Filename C:\Users\_A.T.Omix_\Music\Adam Skorupa, Krzysztof Wierzynkiewicz\2011 - The Witcher 2 -Soundtrack\12. Regicide.wav
    
         Peak level 99.1 %
         Track quality 100.0 %
         Test CRC 92CB4C1E
         Copy CRC 92CB4C1E
         Track not present in AccurateRip database
         Copy OK
    
    Track 13
    
         Filename C:\Users\_A.T.Omix_\Music\Adam Skorupa, Krzysztof Wierzynkiewicz\2011 - The Witcher 2 -Soundtrack\13. The Wild Hunt.wav
    
         Peak level 99.6 %
         Track quality 100.0 %
         Test CRC 3827CD41
         Copy CRC 3827CD41
         Track not present in AccurateRip database
         Copy OK
    
    Track 14
    
         Filename C:\Users\_A.T.Omix_\Music\Adam Skorupa, Krzysztof Wierzynkiewicz\2011 - The Witcher 2 -Soundtrack\14. Vergen by Night.wav
    
         Peak level 98.8 %
         Track quality 100.0 %
         Test CRC 90079C5B
         Copy CRC 90079C5B
         Track not present in AccurateRip database
         Copy OK
    
    Track 15
    
         Filename C:\Users\_A.T.Omix_\Music\Adam Skorupa, Krzysztof Wierzynkiewicz\2011 - The Witcher 2 -Soundtrack\15. For a Higher Cause.wav
    
         Peak level 99.6 %
         Track quality 100.0 %
         Test CRC 023ED9A7
         Copy CRC 023ED9A7
         Track not present in AccurateRip database
         Copy OK
    
    Track 16
    
         Filename C:\Users\_A.T.Omix_\Music\Adam Skorupa, Krzysztof Wierzynkiewicz\2011 - The Witcher 2 -Soundtrack\16. Souls in Ruin.wav
    
         Peak level 99.2 %
         Track quality 100.0 %
         Test CRC 32A546F5
         Copy CRC 32A546F5
         Track not present in AccurateRip database
         Copy OK
    
    Track 17
    
         Filename C:\Users\_A.T.Omix_\Music\Adam Skorupa, Krzysztof Wierzynkiewicz\2011 - The Witcher 2 -Soundtrack\17. A Quiet Corner.wav
    
         Peak level 96.7 %
         Track quality 100.0 %
         Test CRC B1E1E740
         Copy CRC B1E1E740
         Track not present in AccurateRip database
         Copy OK
    
    Track 18
    
         Filename C:\Users\_A.T.Omix_\Music\Adam Skorupa, Krzysztof Wierzynkiewicz\2011 - The Witcher 2 -Soundtrack\18. The Assassin Looms.wav
    
         Peak level 99.6 %
         Track quality 100.0 %
         Test CRC D6B5BA34
         Copy CRC D6B5BA34
         Track not present in AccurateRip database
         Copy OK
    
    Track 19
    
         Filename C:\Users\_A.T.Omix_\Music\Adam Skorupa, Krzysztof Wierzynkiewicz\2011 - The Witcher 2 -Soundtrack\19. The Camp by Night.wav
    
         Peak level 99.1 %
         Track quality 100.0 %
         Test CRC 8B5BCD33
         Copy CRC 8B5BCD33
         Track not present in AccurateRip database
         Copy OK
    
    Track 20
    
         Filename C:\Users\_A.T.Omix_\Music\Adam Skorupa, Krzysztof Wierzynkiewicz\2011 - The Witcher 2 -Soundtrack\20. Dreary Stronghold.wav
    
         Peak level 99.0 %
         Track quality 100.0 %
         Test CRC 23DC7D5E
         Copy CRC 23DC7D5E
         Track not present in AccurateRip database
         Copy OK
    
    Track 21
    
         Filename C:\Users\_A.T.Omix_\Music\Adam Skorupa, Krzysztof Wierzynkiewicz\2011 - The Witcher 2 -Soundtrack\21. Howl of the White Wolf.wav
    
         Peak level 99.0 %
         Track quality 100.0 %
         Test CRC D7FE0DAF
         Copy CRC D7FE0DAF
         Track not present in AccurateRip database
         Copy OK
    
    Track 22
    
         Filename C:\Users\_A.T.Omix_\Music\Adam Skorupa, Krzysztof Wierzynkiewicz\2011 - The Witcher 2 -Soundtrack\22. Sorceresses.wav
    
         Peak level 99.0 %
         Track quality 100.0 %
         Test CRC B4DD0411
         Copy CRC B4DD0411
         Track not present in AccurateRip database
         Copy OK
    
    Track 23
    
         Filename C:\Users\_A.T.Omix_\Music\Adam Skorupa, Krzysztof Wierzynkiewicz\2011 - The Witcher 2 -Soundtrack\23. The End is Never the Same.wav
    
         Peak level 99.5 %
         Track quality 100.0 %
         Test CRC D7F0FC51
         Copy CRC D7F0FC51
         Track not present in AccurateRip database
         Copy OK
    
    
    None of the tracks are present in the AccurateRip database
    
    No errors occurred
    
    End of status report


    [Hidden link. Register to see links.]

    Excellent game and OST
    Don't forget to support the companies, which music/software you actually enjoy!
    [Hidden link. Register to see links.]

    Password:by_A.T.Omix_
    Last edited by _A.T.Omix_; 04-08-2015 at 05:17 PM.
    You have valuable soundtracks you would like to secure and access from everywhere on all your devices? Use [Hidden link. Register to see links.] and sync your files at your speed.
    Looking for the title of that song: [Hidden link. Register to see links.]

  2. #2
    Grand Shriner Russ's Avatar
    Join Date
    May 2007
    Posts
    457
    Thanks mate.

  3. #3
    Onion Kid
    Join Date
    Dec 2006
    Posts
    2
    Thanks for the upload!

    Apparently I'm a tool and missed the password.

  4. #4
    Shriner
    Join Date
    Nov 2010
    Posts
    32
    Sweeeeet!!! TU!

  5. #5
    Grand Shriner
    Join Date
    Oct 2007
    Posts
    1,618
    Thanks!

  6. #6
    Onion Kid
    Join Date
    Mar 2011
    Posts
    5
    TYVM..

    I got this game through Steam, but they only had 320kbps mp3 files.

  7. #7
    Onion Kid
    Join Date
    Nov 2009
    Posts
    6
    URL broken.

  8. #8
    Shriner Falou's Avatar
    Join Date
    Apr 2012
    Location
    Froidchapelle - Belgium
    Posts
    95
    Oh yes! If someone could re up this one, it could be amazing! A generous and brave soul here?? Pleaaase!!!

  9. #9
    Onion Kid
    Join Date
    May 2011
    Posts
    9
    Need a re-up please

  10. #10
    Grand Shriner Smurf Stomper's Avatar
    Join Date
    Feb 2007
    Posts
    558
    if no one re-ups the flac version, you're welcome to check out my upload of the [Hidden link. Register to see links.]

  11. #11
    <That was fucking poetry> cooljacker's Avatar
    Join Date
    May 2008
    Location
    Serbia
    Posts
    877
    General information, there is FLAC version of the 46 tracks EE release that is available on GOG with the game purchase.
    Last edited by cooljacker; 08-27-2014 at 04:09 PM.
    No reuploads so please fuck off.

  12. #12
    Onion Kid
    Join Date
    Aug 2014
    Posts
    8
    thank you !

  13. #13
    Shriner _A.T.Omix_'s Avatar
    Join Date
    Jan 2011
    Posts
    86
    Link updated

  14. #14
    Shriner Falou's Avatar
    Join Date
    Apr 2012
    Location
    Froidchapelle - Belgium
    Posts
    95
    Thanks you! Need to be this evening at home to listen that!

  15. #15
    Grand Shriner
    Join Date
    Aug 2013
    Posts
    1,878
    Thank you.

  16. #16
    Onion Kid
    Join Date
    Aug 2010
    Posts
    21
    Thanks. now I could listen to this OST in lossless <3

  17. #17
    Grand Shriner Hairballs58's Avatar
    Join Date
    Mar 2017
    Location
    So Cal
    Posts
    122
    Thanks!

  18. #18
    Assemble at dawn. GrayEdwards's Avatar
    Join Date
    Jun 2010
    Location
    Fairbanks, AK
    Posts
    2,835
    Thank you very much for sharing.
    Complete Score Wishlist:

    James Horner - Romeo & Juliet (Rejected)
    John Williams - Prisoner of Azkaban, The Force Awakens
    Ghost in the Shell - Clint Mansell; The Fall - Krishna Levy; Hulk by Mychael Danna (rejected); 300: Rise Of An Empire by Federico Jusid (rejected)

  19. #19
    Grand Shriner
    Join Date
    Mar 2011
    Posts
    384
    Appreciate your time and efforts!! Awesome album!! Thank you!!

Bookmarks

Posting Permissions

  • You may not post new threads
  • You may not post replies
  • You may not post attachments
  • You may not edit your posts
  •