PDA

View Full Version : Sense and Sensibility (1995) Patrick Doyle (Flac)



Secret Society
09-13-2011, 03:45 PM
[CENTER]Sense and Sensibility (1995) Patrick Doyle (Flac)

[Only registered and activated users can see links]

Lossless flac tracks, log and cover:

MOD EDIT: link removed. No Patrick Doyle links allowed.
Try PM the OP.

Please read more about music that may not be posted.
[Only registered and activated users can see links]

Please report posts with links (active or not) music that may not be posted.
Thank you for understanding.


Exact Audio Copy V0.99 prebeta 5 from 4. May 2009

EAC extraction logfile from 3. September 2011, 18:50

Patrick Doyle / Sense And Sensibility

Used drive : ASUS BC-08B1ST Adapter: 3 ID: 0

Read mode : Secure
Utilize accurate stream : Yes
Defeat audio cache : Yes
Make use of C2 pointers : No

Read offset correction : 6
Overread into Lead-In and Lead-Out : No
Fill up missing offset samples with silence : Yes
Delete leading and trailing silent blocks : No
Null samples used in CRC calculations : Yes
Used interface : Native Win32 interface for Win NT & 2000
Gap handling : Appended to previous track

Used output format : Internal WAV Routines
Sample format : 44.100 Hz; 16 Bit; Stereo


TOC of the extracted CD

Track | Start | Length | Start sector | End sector
---------------------------------------------------------
1 | 0:00.00 | 3:06.27 | 0 | 13976
2 | 3:06.27 | 1:16.70 | 13977 | 19746
3 | 4:23.22 | 5:28.20 | 19747 | 44366
4 | 9:51.42 | 1:35.13 | 44367 | 51504
5 | 11:26.55 | 1:05.05 | 51505 | 56384
6 | 12:31.60 | 1:58.45 | 56385 | 65279
7 | 14:30.30 | 1:19.40 | 65280 | 71244
8 | 15:49.70 | 1:23.32 | 71245 | 77501
9 | 17:13.27 | 1:43.00 | 77502 | 85226
10 | 18:56.27 | 1:05.53 | 85227 | 90154
11 | 20:02.05 | 1:15.20 | 90155 | 95799
12 | 21:17.25 | 1:20.27 | 95800 | 101826
13 | 22:37.52 | 1:40.20 | 101827 | 109346
14 | 24:17.72 | 2:23.00 | 109347 | 120071
15 | 26:40.72 | 1:41.43 | 120072 | 127689
16 | 28:22.40 | 2:14.52 | 127690 | 137791
17 | 30:37.17 | 2:59.73 | 137792 | 151289
18 | 33:37.15 | 2:37.19 | 151290 | 163083
19 | 36:14.34 | 1:00.08 | 163084 | 167591
20 | 37:14.42 | 3:09.23 | 167592 | 181789
21 | 40:23.65 | 2:30.72 | 181790 | 193111


Track 1

Filename C:\Users\Corey\Music\Patrick Doyle - Sense And Sensibility\01 Weep You No More Sad Fountains.wav

Pre-gap length 0:00:02.00

Peak level 98.8 %
Track quality 100.0 %
Test CRC 91FCD888
Copy CRC 91FCD888
Accurately ripped (confidence 18) [247E8C5C]
Copy OK

Track 2

Filename C:\Users\Corey\Music\Patrick Doyle - Sense And Sensibility\02 A Particular Sum.wav

Peak level 60.5 %
Track quality 100.0 %
Test CRC B789CFB6
Copy CRC B789CFB6
Accurately ripped (confidence 18) [2ACCF353]
Copy OK

Track 3

Filename C:\Users\Corey\Music\Patrick Doyle - Sense And Sensibility\03 My Father's Favorite.wav

Pre-gap length 0:01:16.70

Peak level 69.4 %
Track quality 100.0 %
Test CRC 2CED0BB3
Copy CRC 2CED0BB3
Accurately ripped (confidence 18) [BA750DE3]
Copy OK

Track 4

Filename C:\Users\Corey\Music\Patrick Doyle - Sense And Sensibility\04 Preying Penniless Woman.wav

Pre-gap length 0:06:45.15

Peak level 46.4 %
Track quality 100.0 %
Test CRC 90D69F46
Copy CRC 90D69F46
Accurately ripped (confidence 18) [9054DC12]
Copy OK

Track 5

Filename C:\Users\Corey\Music\Patrick Doyle - Sense And Sensibility\05 Devonshire.wav

Pre-gap length 2:05:10.08

Peak level 41.7 %
Track quality 99.8 %
Test CRC 7FBF4E3C
Copy CRC 7FBF4E3C
Accurately ripped (confidence 18) [DD7CCF25]
Copy OK

Track 6

Filename C:\Users\Corey\Music\Patrick Doyle - Sense And Sensibility\06 Not A Beau For Miles.wav

Pre-gap length 0:09:25.33

Peak level 62.3 %
Track quality 100.0 %
Test CRC 7B769F97
Copy CRC 7B769F97
Accurately ripped (confidence 18) [29795AEC]
Copy OK

Track 7

Filename C:\Users\Corey\Music\Patrick Doyle - Sense And Sensibility\07 All The Better For Her.wav

Pre-gap length 0:11:24.03

Peak level 68.1 %
Track quality 100.0 %
Test CRC 47BA0955
Copy CRC 47BA0955
Accurately ripped (confidence 18) [BD0BBC2C]
Copy OK

Track 8

Filename C:\Users\Corey\Music\Patrick Doyle - Sense And Sensibility\08 Felicity.wav

Pre-gap length 0:12:43.43

Peak level 75.4 %
Track quality 100.0 %
Test CRC 06032FD1
Copy CRC 06032FD1
Accurately ripped (confidence 18) [45F8F353]
Copy OK

Track 9

Filename C:\Users\Corey\Music\Patrick Doyle - Sense And Sensibility\09 Patience.wav

Pre-gap length 0:14:07.00

Peak level 39.6 %
Track quality 100.0 %
Test CRC 3C658E07
Copy CRC 3C658E07
Accurately ripped (confidence 18) [72A9D3C1]
Copy OK

Track 10

Filename C:\Users\Corey\Music\Patrick Doyle - Sense And Sensibility\10 Grant Me An Interview.wav

Pre-gap length 0:15:50.00

Peak level 41.9 %
Track quality 100.0 %
Test CRC 6B1B6A2A
Copy CRC 6B1B6A2A
Accurately ripped (confidence 18) [E6F5DA5B]
Copy OK

Track 11

Filename C:\Users\Corey\Music\Patrick Doyle - Sense And Sensibility\11 All The Delights Of The Season.wav

Pre-gap length 0:16:55.53

Peak level 67.8 %
Track quality 100.0 %
Test CRC FD0A0534
Copy CRC FD0A0534
Accurately ripped (confidence 18) [3FB20B42]
Copy OK

Track 12

Filename C:\Users\Corey\Music\Patrick Doyle - Sense And Sensibility\12 Steam Engine.wav

Pre-gap length 0:18:10.73

Peak level 83.7 %
Track quality 99.8 %
Test CRC 932C9F38
Copy CRC 932C9F38
Accurately ripped (confidence 19) [06FC4E07]
Copy OK

Track 13

Filename C:\Users\Corey\Music\Patrick Doyle - Sense And Sensibility\13 Willoughby.wav

Pre-gap length 0:19:31.25

Peak level 94.8 %
Track quality 99.8 %
Test CRC E8E99713
Copy CRC E8E99713
Accurately ripped (confidence 19) [0D942650]
Copy OK

Track 14

Filename C:\Users\Corey\Music\Patrick Doyle - Sense And Sensibility\14 Miss Grey.wav

Pre-gap length 0:21:11.45

Peak level 100.0 %
Track quality 100.0 %
Test CRC 6373262F
Copy CRC 6373262F
Accurately ripped (confidence 19) [025B3CF1]
Copy OK

Track 15

Filename C:\Users\Corey\Music\Patrick Doyle - Sense And Sensibility\15 Excellent Notion.wav

Pre-gap length 0:23:34.45

Peak level 36.5 %
Track quality 100.0 %
Test CRC D5D605A0
Copy CRC D5D605A0
Accurately ripped (confidence 18) [B6C0D4FF]
Copy OK

Track 16

Filename C:\Users\Corey\Music\Patrick Doyle - Sense And Sensibility\16 Leaving London.wav

Pre-gap length 0:25:16.13

Peak level 100.0 %
Track quality 100.0 %
Test CRC BB275DED
Copy CRC BB275DED
Accurately ripped (confidence 18) [941D9C0D]
Copy OK

Track 17

Filename C:\Users\Corey\Music\Patrick Doyle - Sense And Sensibility\17 Combe Magna.wav

Pre-gap length 0:27:30.65

Peak level 74.7 %
Track quality 99.9 %
Test CRC 6F1F7EC7
Copy CRC 6F1F7EC7
Accurately ripped (confidence 18) [604C7DE6]
Copy OK

Track 18

Filename C:\Users\Corey\Music\Patrick Doyle - Sense And Sensibility\18 To Die For Love.wav

Pre-gap length 0:30:30.63

Peak level 42.9 %
Track quality 100.0 %
Test CRC 6CFA4D89
Copy CRC 6CFA4D89
Accurately ripped (confidence 18) [7A2EF876]
Copy OK

Track 19

Filename C:\Users\Corey\Music\Patrick Doyle - Sense And Sensibility\19 There Is Nothing Lost.wav

Pre-gap length 0:33:08.07

Peak level 50.4 %
Track quality 99.8 %
Test CRC 5258BDD5
Copy CRC 5258BDD5
Accurately ripped (confidence 18) [F1E877E9]
Copy OK

Track 20

Filename C:\Users\Corey\Music\Patrick Doyle - Sense And Sensibility\20 Throw The Coins.wav

Pre-gap length 0:34:08.15

Peak level 95.8 %
Track quality 100.0 %
Test CRC C36DF251
Copy CRC C36DF251
Accurately ripped (confidence 18) [920F084C]
Copy OK

Track 21

Filename C:\Users\Corey\Music\Patrick Doyle - Sense And Sensibility\21 The Dreame.wav

Pre-gap length 0:37:17.38

Peak level 99.9 %
Track quality 100.0 %
Test CRC 7061AF8C
Copy CRC 7061AF8C
Accurately ripped (confidence 17) [7AB7E3CA]
Copy OK


All tracks accurately ripped

No errors occurred

End of status report

Sirusjr
09-13-2011, 04:26 PM
Thanks :D

samy013
09-13-2011, 09:01 PM
Thanks for the upload.

ThanataPhaemo
09-26-2011, 06:44 AM
Oh you just made my day! <3 Thank you sooo much.

Miastar
07-04-2012, 04:37 AM
Can any one re-up this soundtrack?

FENDY.WIZARD
08-24-2012, 06:15 AM
[Only registered and activated users can see links]

yentamaker
11-28-2012, 04:58 PM
[CENTER]Sense and Sensibility (1995) Patrick Doyle (Flac)

[Only registered and activated users can see links]

Lossless flac tracks, log and cover:



Exact Audio Copy V0.99 prebeta 5 from 4. May 2009

EAC extraction logfile from 3. September 2011, 18:50

Patrick Doyle / Sense And Sensibility

Used drive : ASUS BC-08B1ST Adapter: 3 ID: 0

Read mode : Secure
Utilize accurate stream : Yes
Defeat audio cache : Yes
Make use of C2 pointers : No

Read offset correction : 6
Overread into Lead-In and Lead-Out : No
Fill up missing offset samples with silence : Yes
Delete leading and trailing silent blocks : No
Null samples used in CRC calculations : Yes
Used interface : Native Win32 interface for Win NT & 2000
Gap handling : Appended to previous track

Used output format : Internal WAV Routines
Sample format : 44.100 Hz; 16 Bit; Stereo


TOC of the extracted CD

Track | Start | Length | Start sector | End sector
---------------------------------------------------------
1 | 0:00.00 | 3:06.27 | 0 | 13976
2 | 3:06.27 | 1:16.70 | 13977 | 19746
3 | 4:23.22 | 5:28.20 | 19747 | 44366
4 | 9:51.42 | 1:35.13 | 44367 | 51504
5 | 11:26.55 | 1:05.05 | 51505 | 56384
6 | 12:31.60 | 1:58.45 | 56385 | 65279
7 | 14:30.30 | 1:19.40 | 65280 | 71244
8 | 15:49.70 | 1:23.32 | 71245 | 77501
9 | 17:13.27 | 1:43.00 | 77502 | 85226
10 | 18:56.27 | 1:05.53 | 85227 | 90154
11 | 20:02.05 | 1:15.20 | 90155 | 95799
12 | 21:17.25 | 1:20.27 | 95800 | 101826
13 | 22:37.52 | 1:40.20 | 101827 | 109346
14 | 24:17.72 | 2:23.00 | 109347 | 120071
15 | 26:40.72 | 1:41.43 | 120072 | 127689
16 | 28:22.40 | 2:14.52 | 127690 | 137791
17 | 30:37.17 | 2:59.73 | 137792 | 151289
18 | 33:37.15 | 2:37.19 | 151290 | 163083
19 | 36:14.34 | 1:00.08 | 163084 | 167591
20 | 37:14.42 | 3:09.23 | 167592 | 181789
21 | 40:23.65 | 2:30.72 | 181790 | 193111


Track 1

Filename C:\Users\Corey\Music\Patrick Doyle - Sense And Sensibility\01 Weep You No More Sad Fountains.wav

Pre-gap length 0:00:02.00

Peak level 98.8 %
Track quality 100.0 %
Test CRC 91FCD888
Copy CRC 91FCD888
Accurately ripped (confidence 18) [247E8C5C]
Copy OK

Track 2

Filename C:\Users\Corey\Music\Patrick Doyle - Sense And Sensibility\02 A Particular Sum.wav

Peak level 60.5 %
Track quality 100.0 %
Test CRC B789CFB6
Copy CRC B789CFB6
Accurately ripped (confidence 18) [2ACCF353]
Copy OK

Track 3

Filename C:\Users\Corey\Music\Patrick Doyle - Sense And Sensibility\03 My Father's Favorite.wav

Pre-gap length 0:01:16.70

Peak level 69.4 %
Track quality 100.0 %
Test CRC 2CED0BB3
Copy CRC 2CED0BB3
Accurately ripped (confidence 18) [BA750DE3]
Copy OK

Track 4

Filename C:\Users\Corey\Music\Patrick Doyle - Sense And Sensibility\04 Preying Penniless Woman.wav

Pre-gap length 0:06:45.15

Peak level 46.4 %
Track quality 100.0 %
Test CRC 90D69F46
Copy CRC 90D69F46
Accurately ripped (confidence 18) [9054DC12]
Copy OK

Track 5

Filename C:\Users\Corey\Music\Patrick Doyle - Sense And Sensibility\05 Devonshire.wav

Pre-gap length 2:05:10.08

Peak level 41.7 %
Track quality 99.8 %
Test CRC 7FBF4E3C
Copy CRC 7FBF4E3C
Accurately ripped (confidence 18) [DD7CCF25]
Copy OK

Track 6

Filename C:\Users\Corey\Music\Patrick Doyle - Sense And Sensibility\06 Not A Beau For Miles.wav

Pre-gap length 0:09:25.33

Peak level 62.3 %
Track quality 100.0 %
Test CRC 7B769F97
Copy CRC 7B769F97
Accurately ripped (confidence 18) [29795AEC]
Copy OK

Track 7

Filename C:\Users\Corey\Music\Patrick Doyle - Sense And Sensibility\07 All The Better For Her.wav

Pre-gap length 0:11:24.03

Peak level 68.1 %
Track quality 100.0 %
Test CRC 47BA0955
Copy CRC 47BA0955
Accurately ripped (confidence 18) [BD0BBC2C]
Copy OK

Track 8

Filename C:\Users\Corey\Music\Patrick Doyle - Sense And Sensibility\08 Felicity.wav

Pre-gap length 0:12:43.43

Peak level 75.4 %
Track quality 100.0 %
Test CRC 06032FD1
Copy CRC 06032FD1
Accurately ripped (confidence 18) [45F8F353]
Copy OK

Track 9

Filename C:\Users\Corey\Music\Patrick Doyle - Sense And Sensibility\09 Patience.wav

Pre-gap length 0:14:07.00

Peak level 39.6 %
Track quality 100.0 %
Test CRC 3C658E07
Copy CRC 3C658E07
Accurately ripped (confidence 18) [72A9D3C1]
Copy OK

Track 10

Filename C:\Users\Corey\Music\Patrick Doyle - Sense And Sensibility\10 Grant Me An Interview.wav

Pre-gap length 0:15:50.00

Peak level 41.9 %
Track quality 100.0 %
Test CRC 6B1B6A2A
Copy CRC 6B1B6A2A
Accurately ripped (confidence 18) [E6F5DA5B]
Copy OK

Track 11

Filename C:\Users\Corey\Music\Patrick Doyle - Sense And Sensibility\11 All The Delights Of The Season.wav

Pre-gap length 0:16:55.53

Peak level 67.8 %
Track quality 100.0 %
Test CRC FD0A0534
Copy CRC FD0A0534
Accurately ripped (confidence 18) [3FB20B42]
Copy OK

Track 12

Filename C:\Users\Corey\Music\Patrick Doyle - Sense And Sensibility\12 Steam Engine.wav

Pre-gap length 0:18:10.73

Peak level 83.7 %
Track quality 99.8 %
Test CRC 932C9F38
Copy CRC 932C9F38
Accurately ripped (confidence 19) [06FC4E07]
Copy OK

Track 13

Filename C:\Users\Corey\Music\Patrick Doyle - Sense And Sensibility\13 Willoughby.wav

Pre-gap length 0:19:31.25

Peak level 94.8 %
Track quality 99.8 %
Test CRC E8E99713
Copy CRC E8E99713
Accurately ripped (confidence 19) [0D942650]
Copy OK

Track 14

Filename C:\Users\Corey\Music\Patrick Doyle - Sense And Sensibility\14 Miss Grey.wav

Pre-gap length 0:21:11.45

Peak level 100.0 %
Track quality 100.0 %
Test CRC 6373262F
Copy CRC 6373262F
Accurately ripped (confidence 19) [025B3CF1]
Copy OK

Track 15

Filename C:\Users\Corey\Music\Patrick Doyle - Sense And Sensibility\15 Excellent Notion.wav

Pre-gap length 0:23:34.45

Peak level 36.5 %
Track quality 100.0 %
Test CRC D5D605A0
Copy CRC D5D605A0
Accurately ripped (confidence 18) [B6C0D4FF]
Copy OK

Track 16

Filename C:\Users\Corey\Music\Patrick Doyle - Sense And Sensibility\16 Leaving London.wav

Pre-gap length 0:25:16.13

Peak level 100.0 %
Track quality 100.0 %
Test CRC BB275DED
Copy CRC BB275DED
Accurately ripped (confidence 18) [941D9C0D]
Copy OK

Track 17

Filename C:\Users\Corey\Music\Patrick Doyle - Sense And Sensibility\17 Combe Magna.wav

Pre-gap length 0:27:30.65

Peak level 74.7 %
Track quality 99.9 %
Test CRC 6F1F7EC7
Copy CRC 6F1F7EC7
Accurately ripped (confidence 18) [604C7DE6]
Copy OK

Track 18

Filename C:\Users\Corey\Music\Patrick Doyle - Sense And Sensibility\18 To Die For Love.wav

Pre-gap length 0:30:30.63

Peak level 42.9 %
Track quality 100.0 %
Test CRC 6CFA4D89
Copy CRC 6CFA4D89
Accurately ripped (confidence 18) [7A2EF876]
Copy OK

Track 19

Filename C:\Users\Corey\Music\Patrick Doyle - Sense And Sensibility\19 There Is Nothing Lost.wav

Pre-gap length 0:33:08.07

Peak level 50.4 %
Track quality 99.8 %
Test CRC 5258BDD5
Copy CRC 5258BDD5
Accurately ripped (confidence 18) [F1E877E9]
Copy OK

Track 20

Filename C:\Users\Corey\Music\Patrick Doyle - Sense And Sensibility\20 Throw The Coins.wav

Pre-gap length 0:34:08.15

Peak level 95.8 %
Track quality 100.0 %
Test CRC C36DF251
Copy CRC C36DF251
Accurately ripped (confidence 18) [920F084C]
Copy OK

Track 21

Filename C:\Users\Corey\Music\Patrick Doyle - Sense And Sensibility\21 The Dreame.wav

Pre-gap length 0:37:17.38

Peak level 99.9 %
Track quality 100.0 %
Test CRC 7061AF8C
Copy CRC 7061AF8C
Accurately ripped (confidence 17) [7AB7E3CA]
Copy OK


All tracks accurately ripped

No errors occurred

End of status report


Can you please re-upload this onto another site instead of RS? Thank you in advance. I love this soundtrack.

hanayomesoushi
12-27-2013, 11:49 AM
I like all Jane Austen's works icluding their films.

juniormint1
07-07-2015, 02:41 PM
Very much appreciated.