PDA

View Full Version : Howard Shore Mrs. Doubtfire [1993] (Flac log cue)



Secret Society
09-12-2011, 02:39 PM
Howard Shore Mrs. Doubtfire [1993] (Flac, log and cue)

Flac tracks with log and cue:
[Only registered and activated users can see links]


Exact Audio Copy V0.99 prebeta 5 from 4. May 2009

EAC extraction logfile from 6. September 2011, 18:52

Howard Shore / Mrs. Doubtfire

Used drive : ASUS BC-08B1ST Adapter: 3 ID: 0

Read mode : Secure
Utilize accurate stream : Yes
Defeat audio cache : Yes
Make use of C2 pointers : Yes

Read offset correction : 6
Overread into Lead-In and Lead-Out : No
Fill up missing offset samples with silence : Yes
Delete leading and trailing silent blocks : No
Null samples used in CRC calculations : Yes
Used interface : Native Win32 interface for Win NT & 2000
Gap handling : Appended to previous track

Used output format : Internal WAV Routines
Sample format : 44.100 Hz; 16 Bit; Stereo


TOC of the extracted CD

Track | Start | Length | Start sector | End sector
---------------------------------------------------------
1 | 0:00.00 | 3:00.70 | 0 | 13569
2 | 3:00.70 | 2:54.35 | 13570 | 26654
3 | 5:55.30 | 2:56.00 | 26655 | 39854
4 | 8:51.30 | 2:14.52 | 39855 | 49956
5 | 11:06.07 | 3:58.05 | 49957 | 67811
6 | 15:04.12 | 2:18.48 | 67812 | 78209
7 | 17:22.60 | 2:28.55 | 78210 | 89364
8 | 19:51.40 | 4:56.32 | 89365 | 111596
9 | 24:47.72 | 6:14.28 | 111597 | 139674
10 | 31:02.25 | 3:25.27 | 139675 | 155076
11 | 34:27.52 | 3:21.55 | 155077 | 170206
12 | 37:49.32 | 3:23.45 | 170207 | 185476


Track 1

Filename C:\Users\Corey\Music\Howard Shore - Mrs. Doubtfire\01 Mrs. Doubtfire.wav

Pre-gap length 0:00:02.00

Peak level 84.4 %
Track quality 100.0 %
Test CRC 6EC415A5
Copy CRC 6EC415A5
Track not present in AccurateRip database
Copy OK

Track 2

Filename C:\Users\Corey\Music\Howard Shore - Mrs. Doubtfire\02 Divorce.wav

Peak level 21.7 %
Track quality 100.0 %
Test CRC E11B5555
Copy CRC E11B5555
Track not present in AccurateRip database
Copy OK

Track 3

Filename C:\Users\Corey\Music\Howard Shore - Mrs. Doubtfire\03 My Name Is Elsa Immelman.wav

Pre-gap length 0:02:54.35

Peak level 99.8 %
Track quality 100.0 %
Test CRC 6F4AAB50
Copy CRC 6F4AAB50
Track not present in AccurateRip database
Copy OK

Track 4

Filename C:\Users\Corey\Music\Howard Shore - Mrs. Doubtfire\04 Meeting Mrs. Doubtfire.wav

Pre-gap length 0:05:50.35

Peak level 39.7 %
Track quality 100.0 %
Test CRC 2347952B
Copy CRC 2347952B
Track not present in AccurateRip database
Copy OK

Track 5

Filename C:\Users\Corey\Music\Howard Shore - Mrs. Doubtfire\05 Tea Time With Mrs. Sellner.wav

Pre-gap length 0:08:05.12

Peak level 79.9 %
Track quality 100.0 %
Test CRC E4186EAE
Copy CRC E4186EAE
Track not present in AccurateRip database
Copy OK

Track 6

Filename C:\Users\Corey\Music\Howard Shore - Mrs. Doubtfire\06 Dinner Is Served.wav

Pre-gap length 0:12:03.17

Peak level 66.4 %
Track quality 99.8 %
Test CRC 14E07F33
Copy CRC 14E07F33
Track not present in AccurateRip database
Copy OK

Track 7

Filename C:\Users\Corey\Music\Howard Shore - Mrs. Doubtfire\07 Daniel And The Kids.wav

Pre-gap length 0:14:21.65

Peak level 40.2 %
Track quality 100.0 %
Test CRC 850EFA8F
Copy CRC 850EFA8F
Track not present in AccurateRip database
Copy OK

Track 8

Filename C:\Users\Corey\Music\Howard Shore - Mrs. Doubtfire\08 Cable Cars.wav

Pre-gap length 0:16:50.45

Peak level 56.3 %
Track quality 99.9 %
Test CRC A58A34D0
Copy CRC A58A34D0
Track not present in AccurateRip database
Copy OK

Track 9

Filename C:\Users\Corey\Music\Howard Shore - Mrs. Doubtfire\09 Bridges Restaurant.wav

Pre-gap length 0:21:47.02

Peak level 99.8 %
Track quality 100.0 %
Test CRC A61BBA42
Copy CRC A61BBA42
Track not present in AccurateRip database
Copy OK

Track 10

Filename C:\Users\Corey\Music\Howard Shore - Mrs. Doubtfire\10 The Show's Over.wav

Pre-gap length 0:28:01.30

Peak level 38.0 %
Track quality 100.0 %
Test CRC 0F780410
Copy CRC 0F780410
Track not present in AccurateRip database
Copy OK

Track 11

Filename C:\Users\Corey\Music\Howard Shore - Mrs. Doubtfire\11 The Kids Need You.wav

Pre-gap length 0:31:26.57

Peak level 96.3 %
Track quality 99.8 %
Test CRC 014D93A3
Copy CRC 014D93A3
Track not present in AccurateRip database
Copy OK

Track 12

Filename C:\Users\Corey\Music\Howard Shore - Mrs. Doubtfire\12 Figaro,Papa's Got A Brand New Bag.wav

Pre-gap length 0:34:48.37

Peak level 99.8 %
Track quality 100.0 %
Test CRC C03A584A
Copy CRC C03A584A
Track not present in AccurateRip database
Copy OK


None of the tracks are present in the AccurateRip database

No errors occurred

End of status report

hcjc
10-27-2011, 07:34 AM
Thanks!

KaFaraqGatri
10-27-2011, 10:17 AM
Thanks, such a sweet score!

raucous80cat
11-06-2011, 09:59 AM
Thank you very much!

nx59650b
01-31-2013, 11:31 PM
I would greatly appreciate it if someone could re-up this in flac. Thanks!!!!

sodaburp
05-22-2013, 04:35 AM
I would greatly appreciate it if someone could re-up this in flac. Thanks!!!!I signed up to this website just for this album and the link is down. Would also appreciate a re-up.