PDA

View Full Version : The City of Prague Philharmonic - Alien Invasion Space and Beyond II (Ape lossless)



Secret Society
09-10-2011, 12:17 PM
The City of Prague Philharmonic - Alien Invasion Space and Beyond II [APE tracks][LOG][CUE]
[Only registered and activated users can see links] ([Only registered and activated users can see links])

Lossless APE tracks with cues and logs:
[Only registered and activated users can see links]

CDs were scratched. This was a difficult rip. After trying to rip secure for almost an hour, I gave up and went with burst mode. I couldn't find this CD ANYWHERE lossless, so I bought it used. This is one of the best sci-fi score collections I've ever had. The performances of the music from Mars Attacks and Dune by the Prague Philharmonic is downright outstanding! Also another thing I like about this album is the performances of some lesser known but great scores.

Track List:
1.01 Mars Attacks - Introduction & Main Titles.ape
1.02 The Day The Earth Stood suite - Outer Space , Radar , Farewell & Finale.ape
1.03 Dune suite.ape
1.04 Star Trek- The Motion Picture - Klingon Attack.ape
1.05 Star Trek- Deep Space 9 - One Last Visit.ape
1.06 Star Trek- First Contact - End Title Suite.ape
1.07 When Worlds Collide suite - Main Title; Foreword; Doomsday; Drawing , The Takeoff , The New World.ape
1.08 Battle Beyond The Stars - Theme.ape
1.09 The Thing From Another World suite - Main Title , The Melting Sequence , The Thing Electrocuted.ape
1.10 Twilight Zone The Movie - End Title Suite.ape
1.11 Battlestar Galactica suite - Prologue , Main Title , The Destruction Of Peace , A Chance To Love; Exodus One.ape
1.12 Stargate - Giza 1928; Going Home.ape2.01 Louis & Bebe Barron - Forbidden Planet (Prelude).ape
2.02 Gustav Holst - Mars, the Bringer of War.ape
2.03 Alan Silvestri - Contact (End Title).ape
2.05 Basil Poledouris - Starship Troopers (Bugs!).ape
2.04 Basil Poledouris - Starship Troopers (Fed Net March).ape
2.06 Alan Silvestri - Predator (Theme).ape
2.07 Leith Stevens - War Of The Worlds.ape
2.08 John Williams - The Empire Strikes Back (Imperial March).ape
2.09 Christopher Young - Invaders From Mars (End Title).ape
2.10 Shirley Walker - Space Above & Beyond.ape
2.11 Joe Harnell - V (Theme).ape
2.12 Jack Nitzsche - Starman (End Title).ape
2.13 David Arnold - Independence Day (End Title).ape
2.14 Dimitri Tiomkin - The Thing From Another World (The Thing Lives!).ape


Exact Audio Copy V0.99 prebeta 5 from 4. May 2009

EAC extraction logfile from 11. December 2010, 1:10

The City of Prague Philharmonic / Alien Invasion - Space and Beyond II - CD 1

Used drive : ATAPI iHAS124 B Adapter: 3 ID: 1

Read mode : Burst

Read offset correction : 6
Overread into Lead-In and Lead-Out : No
Fill up missing offset samples with silence : Yes
Delete leading and trailing silent blocks : No
Null samples used in CRC calculations : Yes
Used interface : Native Win32 interface for Win NT & 2000
Gap handling : Appended to previous track

Used output format : Monkey's Audio Lossless Encoder
Selected bitrate : Extra High Lossless Compression
Quality : High
Add ID3 tag : Yes
Command line compressor : C:\Program Files (x86)\Monkey's Audio\MAC.exe


TOC of the extracted CD

Track | Start | Length | Start sector | End sector
---------------------------------------------------------
1 | 0:00.32 | 4:02.65 | 32 | 18246
2 | 4:03.22 | 5:43.00 | 18247 | 43971
3 | 9:46.22 | 8:44.30 | 43972 | 83301
4 | 18:30.52 | 5:38.68 | 83302 | 108719
5 | 24:09.45 | 3:10.70 | 108720 | 123039
6 | 27:20.40 | 5:12.42 | 123040 | 146481
7 | 32:33.07 | 8:28.48 | 146482 | 184629
8 | 41:01.55 | 4:06.42 | 184630 | 203121
9 | 45:08.22 | 7:36.65 | 203122 | 237386
10 | 52:45.12 | 6:29.40 | 237387 | 266601
11 | 59:14.52 | 11:11.13 | 266602 | 316939
12 | 70:25.65 | 4:47.42 | 316940 | 338506


Track 1

Filename C:\Users\Corey\Music\Mars Attacks - Introduction & Main Titles.wav

Pre-gap length 0:00:02.32

Timing problem 0:03:09

Peak level 97.2 %
Test CRC B512E114
Copy CRC B6BF42BE
Cannot be verified as accurate (confidence 6) [5F18B4DB], AccurateRip returned [EEE80BD5]
Copy finished

Track 2

Filename C:\Users\Corey\Music\The Day The Earth Stood suite - Outer Space , Radar , Farewell & Finale.wav

Peak level 95.1 %
Test CRC 526D017F
Copy CRC 6C2B4B06
Cannot be verified as accurate (confidence 6) [68DF8B83], AccurateRip returned [3217C39C]
Copy OK

Track 3

Filename C:\Users\Corey\Music\Dune suite.wav

Peak level 96.6 %
Test CRC 92B93AA1
Copy CRC 16EB1CD0
Cannot be verified as accurate (confidence 6) [DEBBD653], AccurateRip returned [A32731E7]
Copy OK

Track 4

Filename C:\Users\Corey\Music\Star Trek- The Motion Picture - Klingon Attack.wav

Pre-gap length 0:00:01.00

Peak level 96.5 %
Test CRC 98E3EF1C
Copy CRC 98E3EF1C
Cannot be verified as accurate (confidence 6) [CE711256], AccurateRip returned [36AEA5E7]
Copy OK

Track 5

Filename C:\Users\Corey\Music\Star Trek- Deep Space 9 - One Last Visit.wav

Pre-gap length 0:00:01.00

Peak level 48.4 %
Test CRC B003CDBC
Copy CRC B003CDBC
Cannot be verified as accurate (confidence 6) [4E599227], AccurateRip returned [8B5AD47A]
Copy OK

Track 6

Filename C:\Users\Corey\Music\Star Trek- First Contact - End Title Suite.wav

Timing problem 0:00:41

Peak level 96.9 %
Test CRC CBA752D9
Copy CRC 54FBF8A6
Cannot be verified as accurate (confidence 6) [CD499192], AccurateRip returned [05E6E580]
Copy finished

Track 7

Filename C:\Users\Corey\Music\When Worlds Collide suite - Main Title; Foreword; Doomsday; Drawing , The Takeoff , The New World.wav

Pre-gap length 0:00:01.00

Timing problem 0:01:27

Peak level 96.9 %
Test CRC 7111377F
Copy CRC C550D84D
Cannot be verified as accurate (confidence 6) [3B66C290], AccurateRip returned [04A761AC]
Copy finished

Track 8

Filename C:\Users\Corey\Music\Battle Beyond The Stars - Theme.wav

Timing problem 0:00:15

Peak level 97.2 %
Test CRC BD6E46E4
Copy CRC 9EAAE30B
Cannot be verified as accurate (confidence 6) [AF4181A6], AccurateRip returned [DE628844]
Copy finished

Track 9

Filename C:\Users\Corey\Music\The Thing From Another World suite - Main Title , The Melting Sequence , The Thing Electrocuted.wav

Pre-gap length 0:00:01.00

Peak level 97.1 %
Test CRC 762602AC
Copy CRC CBFCD17B
Cannot be verified as accurate (confidence 6) [3C4DDC7E], AccurateRip returned [77DA0DFE]
Copy OK

Track 10

Filename C:\Users\Corey\Music\Twilight Zone The Movie - End Title Suite.wav

Pre-gap length 0:00:01.00

Timing problem 0:04:33
Timing problem 0:04:57

Peak level 96.7 %
Test CRC 83D49E78
Copy CRC DD07C00B
Cannot be verified as accurate (confidence 6) [83622DC1], AccurateRip returned [2403B73C]
Copy finished

Track 11

Filename C:\Users\Corey\Music\Battlestar Galactica suite - Prologue , Main Title , The Destruction Of Peace , A Chance To Love; Exodus One.wav

Pre-gap length 0:00:01.00

Peak level 96.6 %
Test CRC 230CDC1C
Copy CRC E53AD7E5
Cannot be verified as accurate (confidence 6) [5E7AC6AA], AccurateRip returned [73EE6BBD]
Copy OK

Track 12

Filename C:\Users\Corey\Music\Stargate - Giza 1928; Going Home.wav

Pre-gap length 0:00:01.00

Peak level 96.1 %
Test CRC E2A31B85
Copy CRC C8F934DA
Cannot be verified as accurate (confidence 6) [2BF066BC], AccurateRip returned [B4D68131]
Copy OK


No tracks could be verified as accurate
You may have a different pressing from the one(s) in the database

No errors occurred

End of status report



Exact Audio Copy V0.99 prebeta 5 from 4. May 2009

EAC extraction logfile from 11. December 2010, 0:33

The City of Prague Philharmonic / Alien Invasion - Space and Beyond II - CD 2

Used drive : ATAPI iHAS124 B Adapter: 3 ID: 1

Read mode : Burst

Read offset correction : 6
Overread into Lead-In and Lead-Out : No
Fill up missing offset samples with silence : Yes
Delete leading and trailing silent blocks : No
Null samples used in CRC calculations : Yes
Used interface : Native Win32 interface for Win NT & 2000
Gap handling : Appended to previous track

Used output format : Monkey's Audio Lossless Encoder
Selected bitrate : Extra High Lossless Compression
Quality : High
Add ID3 tag : Yes
Command line compressor : C:\Program Files (x86)\Monkey's Audio\MAC.exe


TOC of the extracted CD

Track | Start | Length | Start sector | End sector
---------------------------------------------------------
1 | 0:00.32 | 3:15.38 | 32 | 14694
2 | 3:15.70 | 8:09.00 | 14695 | 51369
3 | 11:24.70 | 8:48.52 | 51370 | 91021
4 | 20:13.47 | 2:08.18 | 91022 | 100639
5 | 22:21.65 | 5:04.22 | 100640 | 123461
6 | 27:26.12 | 4:09.13 | 123462 | 142149
7 | 31:35.25 | 10:40.02 | 142150 | 190151
8 | 42:15.27 | 3:12.60 | 190152 | 204611
9 | 45:28.12 | 3:46.28 | 204612 | 221589
10 | 49:14.40 | 7:30.20 | 221590 | 255359
11 | 56:44.60 | 1:50.52 | 255360 | 263661
12 | 58:35.37 | 4:46.03 | 263662 | 285114
13 | 63:21.40 | 9:08.20 | 285115 | 326234
14 | 72:29.60 | 2:07.60 | 326235 | 335819


Track 1

Filename C:\Users\Corey\Music\Louis & Bebe Barron - Forbidden Planet (Prelude).wav

Pre-gap length 0:00:02.32

Peak level 95.8 %
Test CRC 6D5721A7
Copy CRC 6D5721A7
Accurately ripped (confidence 3) [4212B490]
Copy OK

Track 2

Filename C:\Users\Corey\Music\Gustav Holst - Mars, the Bringer of War.wav

Peak level 97.2 %
Test CRC 54DEC93A
Copy CRC 54DEC93A
Accurately ripped (confidence 3) [5E247AD1]
Copy OK

Track 3

Filename C:\Users\Corey\Music\Alan Silvestri - Contact (End Title).wav

Pre-gap length 0:00:01.00

Peak level 96.3 %
Test CRC 81033864
Copy CRC 81033864
Accurately ripped (confidence 3) [A494F578]
Copy OK

Track 4

Filename C:\Users\Corey\Music\Basil Poledouris - Starship Troopers (Bugs!).wav

Peak level 96.3 %
Test CRC 10AB68C5
Copy CRC 10AB68C5
Accurately ripped (confidence 3) [1B65D78C]
Copy OK

Track 5

Filename C:\Users\Corey\Music\Basil Poledouris - Starship Troopers (Fed Net March).wav

Peak level 96.6 %
Test CRC 2B920D39
Copy CRC 2B920D39
Accurately ripped (confidence 3) [57966D75]
Copy OK

Track 6

Filename C:\Users\Corey\Music\Alan Silvestri - Predator (Theme).wav

Peak level 93.3 %
Test CRC 3294DA5C
Copy CRC 3294DA5C
Accurately ripped (confidence 3) [F0EB3335]
Copy OK

Track 7

Filename C:\Users\Corey\Music\Leith Stevens - War Of The Worlds.wav

Pre-gap length 0:00:00.74

Peak level 96.2 %
Test CRC BEDB6AE1
Copy CRC BEDB6AE1
Accurately ripped (confidence 3) [5972AB22]
Copy OK

Track 8

Filename C:\Users\Corey\Music\John Williams - The Empire Strikes Back (Imperial March).wav

Pre-gap length 0:00:01.00

Peak level 96.8 %
Test CRC 4DBF1275
Copy CRC 4DBF1275
Accurately ripped (confidence 3) [44750323]
Copy OK

Track 9

Filename C:\Users\Corey\Music\Christopher Young - Invaders From Mars (End Title).wav

Peak level 76.7 %
Test CRC 99980A39
Copy CRC 99980A39
Accurately ripped (confidence 3) [A014A1B1]
Copy OK

Track 10

Filename C:\Users\Corey\Music\Shirley Walker - Space Above & Beyond.wav

Pre-gap length 0:00:01.00

Peak level 96.8 %
Test CRC B35C8E34
Copy CRC B35C8E34
Accurately ripped (confidence 3) [44BB91BF]
Copy OK

Track 11

Filename C:\Users\Corey\Music\Joe Harnell - V (Theme).wav

Peak level 96.5 %
Test CRC 05290352
Copy CRC 4D9310A1
Accurately ripped (confidence 3) [4A2BF018]
Copy OK

Track 12

Filename C:\Users\Corey\Music\Jack Nitzsche - Starman (End Title).wav

Peak level 96.3 %
Test CRC AC221F55
Copy CRC AC221F55
Accurately ripped (confidence 3) [04CBA919]
Copy OK

Track 13

Filename C:\Users\Corey\Music\David Arnold - Independence Day (End Title).wav

Peak level 93.6 %
Test CRC 1D69B184
Copy CRC 1D69B184
Accurately ripped (confidence 3) [838C9089]
Copy OK

Track 14

Filename C:\Users\Corey\Music\Dimitri Tiomkin - The Thing From Another World (The Thing Lives!).wav

Pre-gap length 0:00:05.74

Peak level 80.9 %
Test CRC 6C4C173A
Copy CRC 976E55E4
Accurately ripped (confidence 3) [9F6EACF1]
Copy OK


All tracks accurately ripped

No errors occurred

End of status report

samy013
09-10-2011, 08:23 PM
Thanks for the upload.

tri2061990
09-10-2011, 08:48 PM
Thank you!

RayKay
09-12-2011, 12:48 AM
Thank you!!! Any chance of a track listing?

---------- Post added at 12:48 AM ---------- Previous post was at 12:42 AM ----------

Thank you!!! Any chance of a track listing?

jamesbolos
09-12-2011, 10:38 AM
Thanks a lot for this.

Secret Society
09-12-2011, 03:06 PM
Added tracklist.

tehƧP@ƦKly†ANK™ -Ⅲ¼
10-14-2011, 12:32 AM
Thanks for this!!

Lupus
03-20-2012, 09:12 AM
Can I reqest an upload? "Space and Beyond" parts I and II are very rare nowadays :(

Schlupp66
03-21-2012, 11:53 AM
Thank you

daniemesis44
05-10-2013, 03:09 PM
File is missing, please upload them again, thanks!

bullaherrmann
05-10-2013, 04:54 PM
Yeap! Please, upload again.........thanks a lot!!

bullz698
05-18-2013, 03:10 AM
A re-up would be nice

OscarRomelPR
05-18-2013, 05:15 AM
Re-up please...

fox731
02-09-2014, 05:41 AM
re-up please~~~

jawa809
10-31-2014, 04:22 AM
Hi could you repost link please. thank you

Yalens56
10-31-2014, 11:09 AM
hi yes a re-up would be nice. Thanks in advance

silvereyes
08-23-2018, 04:16 PM
please reup