PDA

View Full Version : [FLAC LOSSLESS]Pride & Prejudice - 2005 - Jean-Yves Thibaudet, Dario Marianelli



the_pippoz
02-22-2010, 01:08 PM
Pride & Prejudice
Jean-Yves Thibaudet, Dario Marianelli
2005

[Only registered and activated users can see links]


[Only registered and activated users can see links]!mZwmyDiT!gsitOahfMPG8t95EJgpUtiHBI7E2F3PgK505fme Yv-A

EAC Log



Exact Audio Copy V1.0 beta 3 from 29. August 2011

EAC extraction logfile from 28. January 2014, 22:39

Dario Marianelli / Pride & Prejudice

Used drive : Optiarc DVD RW AD-7280S Adapter: 0 ID: 1

Read mode : Secure
Utilize accurate stream : Yes
Defeat audio cache : Yes
Make use of C2 pointers : No

Read offset correction : 48
Overread into Lead-In and Lead-Out : No
Fill up missing offset samples with silence : Yes
Delete leading and trailing silent blocks : No
Null samples used in CRC calculations : Yes
Used interface : Native Win32 interface for Win NT & 2000

Used output format : User Defined Encoder
Selected bitrate : 768 kBit/s
Quality : High
Add ID3 tag : No
Command line compressor : C:\Program Files (x86)\Exact Audio Copy\FLAC\FLAC.EXE
Additional command line options : -8 -V -T "ARTIST=%artist%" -T "TITLE=%title%" -T "ALBUM=%albumtitle%" -T "DATE=%year%" -T "TRACKNUMBER=%tracknr%" -T "GENRE=%genre%" -T "COMMENT=%comment%" -T "BAND=%albuminterpret%" -T "ALBUMARTIST=%albuminterpret%" -T "COMPOSER=%composer%" %haslyrics%--tag-from-file=LYRICS="%lyricsfile%"%haslyrics% -T "DISCNUMBER=%cdnumber%" -T "TOTALDISCS=%totalcds%" -T "TOTALTRACKS=%numtracks%" %hascover%--picture="%coverfile%"%hascover% %source% -o %dest%


TOC of the extracted CD

Track | Start | Length | Start sector | End sector
---------------------------------------------------------
1 | 0:00.00 | 2:40.26 | 0 | 12025
2 | 2:40.26 | 2:01.62 | 12026 | 21162
3 | 4:42.13 | 3:03.42 | 21163 | 34929
4 | 7:45.55 | 1:14.62 | 34930 | 40541
5 | 9:00.42 | 0:57.57 | 40542 | 44873
6 | 9:58.24 | 1:37.73 | 44874 | 52221
7 | 11:36.22 | 1:42.40 | 52222 | 59911
8 | 13:18.62 | 2:41.02 | 59912 | 71988
9 | 15:59.64 | 1:24.29 | 71989 | 78317
10 | 17:24.18 | 1:43.47 | 78318 | 86089
11 | 19:07.65 | 1:15.05 | 86090 | 91719
12 | 20:22.70 | 1:56.33 | 91720 | 100452
13 | 22:19.28 | 3:59.36 | 100453 | 118413
14 | 26:18.64 | 1:11.06 | 118414 | 123744
15 | 27:29.70 | 5:25.64 | 123745 | 148183
16 | 32:55.59 | 3:47.04 | 148184 | 165212
17 | 36:42.63 | 4:47.28 | 165213 | 186765


Range status and errors

Selected range

Filename C:\Users\Pippoz\Desktop\Dario Marianelli - Pride & Prejudice.wav

Peak level 100.0 %
Extraction speed 3.8 X
Range quality 100.0 %
Test CRC 6BDFE1A6
Copy CRC 6BDFE1A6
Copy OK

No errors occurred


AccurateRip summary

Track 1 accurately ripped (confidence 31) [CFD31DBB] (AR v2)
Track 2 accurately ripped (confidence 30) [A8CD4ECA] (AR v2)
Track 3 accurately ripped (confidence 31) [C1433D72] (AR v2)
Track 4 accurately ripped (confidence 31) [05ADDEFB] (AR v2)
Track 5 accurately ripped (confidence 32) [E6BAC13F] (AR v2)
Track 6 accurately ripped (confidence 31) [466CE896] (AR v2)
Track 7 accurately ripped (confidence 31) [9345F387] (AR v2)
Track 8 accurately ripped (confidence 31) [0C82BEDE] (AR v2)
Track 9 accurately ripped (confidence 31) [D4FBAC2A] (AR v2)
Track 10 accurately ripped (confidence 32) [2E7B453C] (AR v2)
Track 11 accurately ripped (confidence 32) [9B0CF414] (AR v2)
Track 12 accurately ripped (confidence 32) [C0D695B3] (AR v2)
Track 13 accurately ripped (confidence 31) [A236CE88] (AR v2)
Track 14 accurately ripped (confidence 31) [F20BAD5D] (AR v2)
Track 15 accurately ripped (confidence 32) [D1A7B857] (AR v2)
Track 16 accurately ripped (confidence 32) [B9B944B3] (AR v2)
Track 17 accurately ripped (confidence 32) [24EEC130] (AR v2)

All tracks accurately ripped

End of status report

---- CUETools DB Plugin V2.1.3

[CTDB TOCID: fTAwQy87Nbpjduh91ZKUI8YuuHw-] found, Submit result: fTAwQy87Nbpjduh91ZKUI8YuuHw- has been confirmed
[c494f82e] (91/93) Accurately ripped
[a7eb4887] (01/93) No match
[b3050c56] (01/93) No match

chatvarin
02-26-2010, 08:03 PM
I have been meaning to buy this CD, but it is a bit too expensive for me, so thank you very much! The music really stood out for me; it was better than the the rest of the film adaptation in my view.

jkoniwan
11-30-2011, 12:23 AM
thank you for sharing...dario marianelli is one of my favourite film score composer

bakaprincess
12-11-2011, 06:20 AM
Thank you! However, shouldn't this topic be in the movie section?

KAITO
12-11-2011, 07:59 AM
wrong section, I was anaware there was a video game of a jane austine book lol

bishtyboshty
07-24-2013, 02:22 AM
Here is the_pippoz's file re-uploaded in a password protected shell...

Zippyshare.com - sec.env.d515.rar ([Only registered and activated users can see links])

Password: Orion999

I've sent a PM to Jessie asking for this thread to be moved to the correct forum.

welltempered88
07-24-2013, 05:47 AM
I heard 'Dawn' & thought it might have been written by Mendelssohn or a contemporary. And so I have discovered Marianelli - better late than never!

laohu
07-24-2013, 10:28 AM
thanks for the reup!

xufaman
08-02-2013, 05:27 PM
Thank you very much, bishtyboshty, for the new link.

xphile7777
08-12-2013, 01:59 AM
Thanks to The_pippoz and Bishtyboshty for their uploads! :D

Petros
08-15-2013, 07:32 AM
Thank you, the_pippoz and bishtyboshty.

tapoktro
09-06-2013, 03:17 AM
Mirror 320kbps:
PridePrejudice.zip (102,98 MB) - uploaded.net ([Only registered and activated users can see links])

the_pippoz
01-30-2014, 10:19 AM
thanks for mirroring, I've made a more accurate new rip (I hope)

enjoy :)

melshoe
01-30-2014, 05:43 PM
Thank you very much.

maofthun
02-17-2018, 02:29 PM
I'm many years late...but could someone please repost the FLAC version? Thank you.