PDA

View Full Version : Benedetto Ghiglia - Adios Gringo (Digitmovies Edizione 2016, EAC-FLAC)



NumeroUno
11-21-2016, 10:58 AM
Benedetto Ghiglia 1966] Adios Gringo [DGST018]

[Only registered and activated users can see links]

[Only registered and activated users can see links]

[01:32] 01. Adios [coro e percussioni]
[01:28] 02. Adios [armonica e chitarra]
[02:13] 03. Wanted
[02:31] 04. Adios triste
[01:32] 05. Adios [valsesito]
[02:09] 06. El suplicio
[01:40] 07. Adios [coro e czimbalon]
[02:01] 08. Adios [bossa nova]
[02:26] 09. Adios
[01:36] 10. Wanted [orchestra e coro]
[03:39] 11. Adios [chitarre e armoniche]
[01:39] 12. Wanted [orchestra]
[02:25] 13. Adios [saltarello per czimbalon e orchestra]
[02:12] 14. Adios [complesso di armoniche]
[01:51] 15. Rancheros
[01:20] 16. Wanted [#2]
[02:26] 17. Gringo [vocal]
[01:58] 18. Rancheros [#2]
[01:53] 19. Adios [saltarello per czimbalon e orchestra #2]
[02:54] 20. Gringo [alternate vocal]
[00:49] 21. Adios gringo [saloon]
[01:11] 22. Adios gringo [coro]
[04:27] 23. Rancheros [#3]
[00:28] 24. Adios gringo [coro #2]
[01:33] 25. Adios [coro e percussioni #2]
[03:23] 26. Rancheros [#4]
[02:17] 27. Wanted [#3]
[02:41] 28. Rancheros [#5]
[02:26] 29. Gringo [base]
[01:37] 30. Wanted [orchestra e coro] mix stereo
[02:22] 31. Gringo [vocal] mix stereo

* tracks 17 & 31 sung by Fred Bongusto
* Choir: I Cantori Moderni di Alessanroni

Digitmovies, 2016 | Cat. DGST018 | Lossless | Scans | CDRip by NumeroUno


Exact Audio Copy V1.1 from 23. June 2015

EAC extraction logfile from 13. August 2016, 14:23

Benedetto Ghiglia / Adios Gringo

Used drive : PIONEER DVD-RW DVR-111D Adapter: 1 ID: 0

Read mode : Secure
Utilize accurate stream : Yes
Defeat audio cache : Yes
Make use of C2 pointers : No

Read offset correction : 48
Overread into Lead-In and Lead-Out : No
Fill up missing offset samples with silence : Yes
Delete leading and trailing silent blocks : No
Null samples used in CRC calculations : Yes
Used interface : Native Win32 interface for Win NT & 2000

Used output format : Internal WAV Routines
Sample format : 44.100 Hz; 16 Bit; Stereo


TOC of the extracted CD

Track | Start | Length | Start sector | End sector
---------------------------------------------------------
1 | 0:00.00 | 1:31.41 | 0 | 6865
2 | 1:31.41 | 1:27.61 | 6866 | 13451
3 | 2:59.27 | 2:13.14 | 13452 | 23440
4 | 5:12.41 | 2:31.33 | 23441 | 34798
5 | 7:43.74 | 1:31.40 | 34799 | 41663
6 | 9:15.39 | 2:09.06 | 41664 | 51344
7 | 11:24.45 | 1:40.15 | 51345 | 58859
8 | 13:04.60 | 2:00.41 | 58860 | 67900
9 | 15:05.26 | 2:26.18 | 67901 | 78868
10 | 17:31.44 | 1:35.71 | 78869 | 86064
11 | 19:07.40 | 3:39.09 | 86065 | 102498
12 | 22:46.49 | 1:38.48 | 102499 | 109896
13 | 24:25.22 | 2:24.46 | 109897 | 120742
14 | 26:49.68 | 2:11.65 | 120743 | 130632
15 | 29:01.58 | 1:51.37 | 130633 | 138994
16 | 30:53.20 | 1:19.57 | 138995 | 144976
17 | 32:13.02 | 2:25.57 | 144977 | 155908
18 | 34:38.59 | 1:57.72 | 155909 | 164755
19 | 36:36.56 | 1:53.26 | 164756 | 173256
20 | 38:30.07 | 2:54.35 | 173257 | 186341
21 | 41:24.42 | 0:49.03 | 186342 | 190019
22 | 42:13.45 | 1:10.46 | 190020 | 195315
23 | 43:24.16 | 4:27.17 | 195316 | 215357
24 | 47:51.33 | 0:27.61 | 215358 | 217443
25 | 48:19.19 | 1:33.21 | 217444 | 224439
26 | 49:52.40 | 3:23.27 | 224440 | 239691
27 | 53:15.67 | 2:17.18 | 239692 | 249984
28 | 55:33.10 | 2:40.54 | 249985 | 262038
29 | 58:13.64 | 2:26.18 | 262039 | 273006
30 | 60:40.07 | 1:37.11 | 273007 | 280292
31 | 62:17.18 | 2:21.68 | 280293 | 290935


Range status and errors

Selected range

Filename D:\Zvonko\Lossless\Benedetto Ghiglia - Adios Gringo [DGST018, Edit 2016]\Benedetto Ghiglia - Adios Gringo.wav

Peak level 95.4 %
Extraction speed 4.8 X
Range quality 100.0 %
Test CRC A4719D48
Copy CRC A4719D48
Copy OK

No errors occurred


AccurateRip summary

Track 1 not present in database
Track 2 not present in database
Track 3 not present in database
Track 4 not present in database
Track 5 not present in database
Track 6 not present in database
Track 7 not present in database
Track 8 not present in database
Track 9 not present in database
Track 10 not present in database
Track 11 not present in database
Track 12 not present in database
Track 13 not present in database
Track 14 not present in database
Track 15 not present in database
Track 16 not present in database
Track 17 not present in database
Track 18 not present in database
Track 19 not present in database
Track 20 not present in database
Track 21 not present in database
Track 22 not present in database
Track 23 not present in database
Track 24 not present in database
Track 25 not present in database
Track 26 not present in database
Track 27 not present in database
Track 28 not present in database
Track 29 not present in database
Track 30 not present in database
Track 31 not present in database

None of the tracks are present in the AccurateRip database

End of status report

---- CUETools DB Plugin V2.1.6

[CTDB TOCID: U_KJFs9OvxMmBx2NMqois5vWwUc-] found
Submit result: U_KJFs9OvxMmBx2NMqois5vWwUc- has been confirmed
Track | CTDB Status
1 | (3/3) Accurately ripped
2 | (3/3) Accurately ripped
3 | (3/3) Accurately ripped
4 | (3/3) Accurately ripped
5 | (3/3) Accurately ripped
6 | (3/3) Accurately ripped
7 | (3/3) Accurately ripped
8 | (3/3) Accurately ripped
9 | (3/3) Accurately ripped
10 | (3/3) Accurately ripped
11 | (3/3) Accurately ripped
12 | (3/3) Accurately ripped
13 | (3/3) Accurately ripped
14 | (3/3) Accurately ripped
15 | (3/3) Accurately ripped
16 | (3/3) Accurately ripped
17 | (3/3) Accurately ripped
18 | (3/3) Accurately ripped
19 | (3/3) Accurately ripped
20 | (3/3) Accurately ripped
21 | (3/3) Accurately ripped
22 | (3/3) Accurately ripped
23 | (3/3) Accurately ripped
24 | (3/3) Accurately ripped
25 | (3/3) Accurately ripped
26 | (3/3) Accurately ripped
27 | (3/3) Accurately ripped
28 | (3/3) Accurately ripped
29 | (3/3) Accurately ripped
30 | (3/3) Accurately ripped
31 | (3/3) Accurately ripped


==== Log checksum 8D5A78C0CFFD9707D300CF305B378BEA30493F4B099228456D A70C4569569387 ====


fooCDtect - foobar2000 + auCDtect, baralgin.

auCDtect: CD records authenticity detector, version 0.8.2
Copyright (c) 2004 Oleg Berngardt. All rights reserved.
Copyright (c) 2004 Alexander Djourik. All rights reserved.

mode: 0

===========================================
Track: Benedetto Ghiglia - Adios Gringo

Processing file: [Benedetto Ghiglia - Adios Gringo.aucdtect]
Detected average hi-boundary frequency: 2.038405e+004 Hz
Detected average lo-boundary frequency: 1.506847e+004 Hz
Detected average hi-cut frequency: 2.155229e+004 Hz
Detected average lo-cut frequency: 1.207662e+004 Hz
Maximum probablis boundary frequency: 2.189100e+004 Hz
Coefficient of nonlinearity of a phase: 1.368478e-002
First order smothness: 5.245315e-001
Second order smothness: 6.201043e-001

------------------------------------------------------------
This track looks like CDDA with probability 99%

===========================================




If you want this gem, please visit DGST THREAD ([Only registered and activated users can see links])

rulletin
11-21-2016, 11:36 AM
Being the first.
Yes, would very much appreciate the link,please. Thanks.

Adagios
11-21-2016, 10:04 PM
Many thanks for this share ! Would love to have a link.

balestrero
11-22-2016, 05:34 AM
Thanks a lot for sharing.
Would love a link, please.

futhark
11-22-2016, 10:59 AM
Would love a link, too, please.

Thanks in advance!

Uncle Bela
11-22-2016, 11:51 AM
Link received...many thanks, NumeroUno. :)

NumeroUno
11-22-2016, 11:54 AM
All done!!!

jamaral
11-22-2016, 12:28 PM
Link received, thank you very much.

rulletin
11-22-2016, 01:11 PM
Link received.
Colonna sonora italiana superiore,grazie NumeroUno!

westernjunkie
11-22-2016, 02:01 PM
Link received, thank you so much!

Don Dino
11-23-2016, 12:40 AM
Link received. Reputation added in DGST thread. Thank you for this gem.

balestrero
11-23-2016, 02:16 AM
Link received, many thanks!

NumeroUno
11-25-2016, 08:52 PM
All done!!!