PDA

View Full Version : The China Syndrome (by Michael Small) - 2009 (1979) lossless WavPack w/cue,log,scans



fucha
04-12-2015, 10:33 PM
Requests by hgohari73
[Only registered and activated users can see links]

The China Syndrome (by Michael Small) - 2009 (1979), WavPack (image+.cue), lossless
[Only registered and activated users can see links]
Genre: Score
Composer: Michael Small
Year of release of a disk: 2009
Year of release of the film: 1979
Country-drive manufacturer: US
Publisher (label): Intrada Special Collection
Catalog number: Volume 110
Audio Codec: WavPack (* .wv)
Type ripa: image + .cue
Audio Bitrate: lossless
Duration: 37:34
Source: emule
Availability scans contents distribution: yes

Tracklist:
01. The Plant (02:21)
02. News at 6:00 (01:41)
03. Ticking Time Bomb (07:48)
04. Hot Rods (03:08)
05. News at 11:00 (01:50)
06. Meltdown! (03:31)
07. The China Syndrome (04:18)
08. The Truth and Finale (05:28)
09. Source Suite #1 (01:32)
10. Source Suite #2 (05:20)
[Only registered and activated users can see links] ([Only registered and activated users can see links])

EAC Log creating rip
Exact Audio Copy V0.99 prebeta 5 from 4. May 2009

EAC extraction logfile from 17. October 2009, 22:27

Michael Small / The China Syndrome

Used drive : PLEXTOR DVDR PX-860SA Adapter: 0 ID: 1

Read mode : Secure
Utilize accurate stream : Yes
Defeat audio cache : Yes
Make use of C2 pointers : No

Read offset correction : 96
Overread into Lead-In and Lead-Out : No
Fill up missing offset samples with silence : Yes
Delete leading and trailing silent blocks : No
Null samples used in CRC calculations : Yes
Used interface : Installed external ASPI interface

Used output format : Internal WAV Routines
Sample format : 44.100 Hz; 16 Bit; Stereo

TOC of the extracted CD

Track | Start | Length | Start sector | End sector
---------------------------------------------------------
1 | 0:00.00 | 2:24.43 | 0 | 10842
2 | 2:24.43 | 1:44.26 | 10843 | 18668
3 | 4:08.69 | 7:51.39 | 18669 | 54032
4 | 12:00.33 | 3:11.62 | 54033 | 68419
5 | 15:12.20 | 1:52.34 | 68420 | 76853
6 | 17:04.54 | 3:34.22 | 76854 | 92925
7 | 20:39.01 | 4:21.38 | 92926 | 112538
8 | 25:00.39 | 5:34.12 | 112539 | 137600
9 | 30:34.51 | 1:35.15 | 137601 | 144740
10 | 32:09.66 | 5:24.08 | 144741 | 169048

Range status and errors

Selected range

Filename F:\EAC\Michael Small - The China Syndrome.wav

Peak level 100.0 %
Range quality 100.0 %
Copy CRC 709455B7
Copy OK

No errors occurred

End of status report

Mege link and password
Link = [Only registered and activated users can see links]!QodHhQSL!4aG1c_g51AmWd71W_GaTdKztwhKqEySyHzYPKVi 6WbA
PW: Thanks

jakegittis
04-13-2015, 04:58 AM
Thanks for the share.

Nicole_FML
04-13-2015, 05:09 AM
Thanks =)

RogerSailer
04-13-2015, 01:57 PM
Thanks!

FilmscoreFan
04-13-2015, 07:35 PM
Many thanks for the share! :)

Spectre8750
04-13-2015, 09:19 PM
Much thanks fucha!

xufaman
04-14-2015, 01:25 AM
Thank you very much.

noisemed
04-14-2015, 10:26 AM
Thank you!

Artistikos
04-14-2015, 10:48 AM
Thanks!

blaaarg
04-14-2015, 07:18 PM
Terrific score! Thank you very much.

Pablo82
04-14-2015, 07:37 PM
Thank you so much, fucha!!!! :)
Big thanks for the link!!!

your_majesty
05-16-2015, 08:28 PM
Thanks

scoremaniatic
09-15-2015, 06:28 AM
Thank you.

reppa35
09-20-2015, 09:54 PM
thanks

mrcbrl
09-21-2015, 02:08 PM
Thank you for this great share!

bladerunn
09-21-2015, 02:15 PM
Thank you.