PDA

View Full Version : Teenage Mutant Ninja Turtles (2014) Original Score [24bit FLAC]



micycle
10-28-2014, 05:15 PM
Teenage Mutant Ninja Turtles (2014) Original Score
by Brian Tyler

[Only registered and activated users can see links]


Info:

Total size : 771 MB (809 189 129 bytes)
Duration : 1:12:42.096 (192 368 447 samples)
Sample rate : 44100 Hz
Channels : 2
Bits per sample : 24
Avg. bitrate : 1472 kbps
Codec : FLAC
Encoding : lossless

Abstract:
The soundtrack, composed by Brian Tyler, includes musical contributions from Juicy J, Wiz Khalifa & Ty Dolla $ign, and Kill The Noise.

In this modern-day iteration of the popular franchise that has captivated audiences of all ages for decades, the Turtles must work with fearless reporter April O’Neil (Megan Fox) and her wise-cracking cameraman Vern Fenwick (Will Arnett) to save New York City and unravel Shredder’s diabolical plan. Based on the Teenage Mutant Ninja Turtles characters created by Peter Laird and Kevin Eastman, with a screenplay by Josh Appelbaum & André Nemec and Evan Daugherty, Teenage Mutant Ninja Turtles is produced by Michael Bay (director and executive producer of the blockbuster Transformers franchise), Andrew Form, Brad Fuller, Galen Walker, Scott Mednick and Ian Bryce, and directed by Jonathan Liebesman (Wrath of the Titans).

Tracklist:
01 – Teenage Mutant Ninja Turtles
02 – Adolescent Genetically Altered Shinobi Terrapins
03 – Splinter vs. Shredder
04 – Origins
05 – Brotherhood
06 – Turtles United
07 – Rise of the Four
08 – The Foot Clan
09 – Shellacked
10 – Project Renaissance
11 – Shortcut
12 – Shredder
13 – Cowabunga
14 – 99 Cheese Pizza
15 – Adrenaline
16 – Buck Buck
17 – TMNT March

Dynamic Range:
foobar2000 1.3.2 / Dynamic Range Meter 1.1.1
log date: 2014-10-28 17:53:52

--------------------------------------------------------------------------------
Analyzed: Brian Tyler / Teenage Mutant Ninja Turtles: The Score
--------------------------------------------------------------------------------

DR Peak RMS Duration Track
--------------------------------------------------------------------------------
DR6 -0.50 dB -10.71 dB 4:45 01-Teenage Mutant Ninja Turtles
DR7 -0.50 dB -13.86 dB 4:32 02-Adolescent Genetically Altered Shinobi Terrapins
DR6 -0.50 dB -9.17 dB 6:26 03-Splinter vs. Shredder
DR8 -0.49 dB -12.58 dB 6:02 04-Origins
DR8 -0.24 dB -11.64 dB 1:19 05-Brotherhood
DR7 -0.50 dB -10.57 dB 4:10 06-Turtles United
DR6 -0.50 dB -11.50 dB 3:34 07-Rise of the Four
DR7 -0.50 dB -10.45 dB 3:18 08-The Foot Clan
DR7 -0.50 dB -12.74 dB 6:47 09-Shellacked
DR9 -0.47 dB -14.39 dB 1:58 10-Project Renaissance
DR6 -0.26 dB -8.75 dB 4:42 11-Shortcut
DR8 -0.50 dB -11.01 dB 5:59 12-Shredder
DR7 -0.50 dB -9.37 dB 4:35 13-Cowabunga
DR7 -0.50 dB -12.10 dB 1:50 14-99 Cheese Pizza
DR6 -0.50 dB -9.49 dB 6:26 15-Adrenaline
DR5 -0.50 dB -8.36 dB 2:08 16-Buck Buck
DR6 -0.50 dB -11.04 dB 4:11 17-TMNT March
--------------------------------------------------------------------------------

Number of tracks: 17
Official DR value: DR7

Samplerate: 44100 Hz
Channels: 2
Bits per sample: 24
Bitrate: 1442 kbps
Codec: FLAC
================================================== ==============================




*Download [MEGA]* ([Only registered and activated users can see links]!QFBV1YAT!Wj7Z2hnxDorDiQY8VcxexA)
Right-click on the red folder (left) and 'Download as ZIP'




[Only registered and activated users can see links] ([Only registered and activated users can see links])

ZheParadox
10-28-2014, 05:29 PM
i didn't even know that there is a 24bit version?! :O
where did you get this?

micycle
10-28-2014, 05:36 PM
i didn't even know that there is a 24bit version?! :O
where did you get this?

[Only registered and activated users can see links]

(Cached page - Since deleted)

samy013
10-28-2014, 06:42 PM
Thank you share!

laohu
10-28-2014, 08:21 PM
thanks,, a flag counter, hein??!! ;) :)

Gunchips
10-28-2014, 08:32 PM
Thanks a lot :D

KevinG
10-28-2014, 08:43 PM
Thanks!!

Nicejob
10-28-2014, 09:07 PM
Thanks man:)

HDlossless
10-28-2014, 09:08 PM
thanks!

G
10-28-2014, 09:19 PM
Thanks

HDlossless
10-28-2014, 09:37 PM
is this the original HDtracks.com version?
Why am I seeing Foobar2000 txt file in its folder?

micycle
10-29-2014, 03:32 AM
is this the original HDtracks.com version?
Why am I seeing Foobar2000 txt file in its folder?

I performed a dynamic range test on the files. The .txt file includes that information.

foxtown
10-29-2014, 04:51 AM
This release looks identical to the 16bit FLAC release ... the numbers on the Dynamic Range test are exactly the same as the numbers on the 16bit release. That's odd. Maybe that is why it was deleted...?

DaUpp
10-29-2014, 05:06 AM
Cool, thank you very much :-)

tnpir4002
10-29-2014, 05:34 AM
In three separate browsers, the download stops at 99% and won't resume. Can you please put this someplace besides Mega? Or upload it as a single ZIP file?

micycle
10-29-2014, 06:30 AM
In three separate browsers, the download stops at 99% and won't resume. Can you please put this someplace besides Mega? Or upload it as a single ZIP file?

Download the tracks separately. CTRL-A, right-click, 'Download'.

Then place them in a folder afterwards.

melshoe
12-23-2014, 11:58 AM
Thanks for sharing.

MetralleTa-Z
04-20-2016, 03:23 PM
thanks a lot micycle!

Remesyx
06-05-2016, 04:19 AM
Thanks a lot :)

Pablo82
06-05-2016, 12:24 PM
Gracias, micycle!!!... I really appreciate the direct link, my friend!!!... :)

Sn0wGl0be
06-08-2016, 01:16 PM
Thank you.

P99
04-03-2017, 05:33 AM
Re-Up please. :) (or PM me please)

sunday12022012
05-04-2017, 12:10 AM
anyone have this?